<?xml version="1.0" standalone="no"?>
<!DOCTYPE svg PUBLIC "-//W3C//DTD SVG 1.1//EN" "http://www.w3.org/Graphics/SVG/1.1/DTD/svg11.dtd" >
<svg xmlns="http://www.w3.org/2000/svg">
<metadata>Generated by IcoMoon</metadata>
<defs>
<font id="icomoon" horiz-adv-x="1024">
<font-face units-per-em="1024" ascent="960" descent="-64" />
<missing-glyph horiz-adv-x="1024" />
<glyph unicode="&#x20;" horiz-adv-x="512" d="" />
<glyph unicode="&#x2388;" glyph-name="exit-circle" d="M512 832c-212.078 0-384-171.922-384-384s171.922-384 384-384 384 171.922 384 384-171.922 384-384 384zM512 136c-172.314 0-312 139.686-312 312s139.686 312 312 312 312-139.686 312-312-139.686-312-312-312zM632 640l-120-120-120 120-72-72 120-120-120-120 72-72 120 120 120-120 72 72-120 120 120 120z" />
<glyph unicode="&#xe900;" glyph-name="info" d="M448 656c0 26.4 21.6 48 48 48h32c26.4 0 48-21.6 48-48v-32c0-26.4-21.6-48-48-48h-32c-26.4 0-48 21.6-48 48v32zM640 192h-256v64h64v192h-64v64h192v-256h64zM512 960c-282.77 0-512-229.23-512-512s229.23-512 512-512 512 229.23 512 512-229.23 512-512 512zM512 32c-229.75 0-416 186.25-416 416s186.25 416 416 416 416-186.25 416-416-186.25-416-416-416z" />
<glyph unicode="&#xe901;" glyph-name="map-pin-fill" horiz-adv-x="640" d="M546.24 866.24c-124.992 124.992-327.488 124.992-452.512 0-124.992-124.928-124.992-327.616 0-452.48 0.032 0 226.272-221.76 226.272-477.76 0 256 226.24 477.76 226.24 477.76 125.024 124.864 125.024 327.552 0 452.48zM320 512c-70.752 0-128 57.248-128 128s57.248 128 128 128 128-57.248 128-128-57.248-128-128-128z" />
<glyph unicode="&#xe902;" glyph-name="build-with-us" d="M669.678 756.215l-419.148-430.616-3.7-6.293-60.866-203.225 198.845 62.857 6.367 3.925 419.183 430.653c14.124 14.511 14.161 37.798 0.037 52.309l-88.019 90.429c-14.486 14.881-38.214 14.842-52.697-0.038v0zM693.889 732.651c1.236 1.271 3.072 1.274 4.276 0.038l88.019-90.429c1.341-1.376 1.337-3.768-0.037-5.178l-417.724-429.154 12.106-11.782-8.867 14.38-2.805-1.73 8.867-14.38-5.092 16.108-166.419-52.607 5.092-16.108 16.183-4.846 51.124 170.696-16.183 4.846 14.563-8.562 1.631 2.775-14.563 8.562 12.106-11.782 417.724 429.154zM296.047 266.183l409.596 409.596c2.638 2.638 6.918 2.638 9.556 0l18.83-18.83c2.638-2.638 2.638-6.918 0-9.556l-409.596-409.596c-2.638-2.638-6.918-2.638-9.556 0l-18.83 18.83c-2.638 2.638-2.638 6.918 0 9.556zM370.066 487.509l128.033 130.929-180.74 184.855-139.789-143.613 180.416-184.525 12.078 12.352zM345.909 511.129l24.156-0.001-156.818 160.387 0.027-23.592 116.215 119.395-24.184-0.027 157.087-160.663 0.001 23.621-116.485-119.119zM740.563 118.983l126.045 125.969-194.883 184.58-137.35-137.905 194.564-184.264 11.625 11.619zM716.68 142.88l23.558 0.317-170.053 161.050 0.353-24.187 113.5 113.958-23.586-0.343 170.316-161.313-0.325 24.213-113.763-113.695zM221.442 153.2l26.418 76.958 50.059-54.508z" />
<glyph unicode="&#xe903;" glyph-name="contact-us" d="M475.235 285.719c55.529-8.435 92.674-44.989 99.951-58.245 13.787-24.503 12.637-81.544 12.637-81.544h-381.802c0 0-1.914 60.655 16.468 85.159 10.34 10.445 42.89 46.194 98.418 55.031 55.144 8.435 38.295 72.706 40.209 71.902 1.914-1.204-0.382 13.657-0.382 13.657s-40.209 40.57-39.827 77.125c0.766 36.955 0 55.835 0 55.835s6.509 86.765 63.186 86.765l31.785-16.068c50.932 0 59.357-70.698 59.357-70.698v-61.057c0 0-6.509-51.819-38.295-70.698 0 0-2.299-14.863-0.382-13.657 1.914 0.804-16.468-64.672 38.679-73.51v0zM673.222 507.452c-11.106 0-26.806 3.214-37.146 4.82-42.508-55.835-117.567-41.374-117.567-41.374 47.103 23.298 55.529 64.672 47.103 69.894-37.146 22.896-54.378 48.604-54.378 87.567 0 68.688 71.228 121.711 161.989 121.711 91.143 0 146.669-53.023 146.669-121.711 0-69.091-55.529-120.908-146.669-120.908v0z" />
<glyph unicode="&#xe904;" glyph-name="footer-email" d="M196.667 212.889h630.667v462.222h-630.667v-462.222zM841.667 184h-659.333c-7.926 0-14.333 6.457-14.333 14.444v491.111c0 7.988 6.407 14.444 14.333 14.444h659.333c7.926 0 14.333-6.457 14.333-14.444v-491.111c0-7.988-6.407-14.444-14.333-14.444v0zM511.524 461.040c-2.68 0-5.389 0.766-7.74 2.282l-326.585 211.308c-6.665 4.319-8.6 13.246-4.329 19.962 4.271 6.731 13.144 8.696 19.809 4.362l318.845-206.31 318.845 206.31c6.651 4.333 15.523 2.369 19.809-4.362 4.271-6.717 2.336-15.643-4.329-19.962l-326.585-211.308c-2.351-1.517-5.060-2.282-7.74-2.282zM182.319 198.444c-3.024 0-6.077 0.953-8.657 2.947-6.307 4.839-7.525 13.896-2.738 20.237l241.287 319.511c4.802 6.356 13.803 7.583 20.081 2.744 6.307-4.839 7.525-13.896 2.738-20.237l-241.287-319.497c-2.824-3.741-7.095-5.706-11.424-5.706zM841.681 198.444c-4.329 0-8.614 1.964-11.424 5.706l-241.087 319.497c-4.787 6.341-3.569 15.412 2.723 20.237 6.307 4.839 15.308 3.611 20.095-2.744l241.087-319.511c4.787-6.341 3.569-15.412-2.738-20.237-2.58-1.993-5.633-2.947-8.657-2.947z" />
<glyph unicode="&#xe905;" glyph-name="about-us" d="M192 445.559c0-186.644 144.856-337.817 323.701-337.817s323.701 151.173 323.701 337.817c0 186.644-144.856 337.817-323.701 337.817s-323.701-151.173-323.701-337.817v0zM231.249 445.559c0 155.396 135.55 296.856 284.452 296.856s283.238-141.461 283.238-296.856c0-155.396-147.688-295.59-296.591-295.59-149.307 0-271.099 140.194-271.099 295.59v0zM475.238 445.559v-126.681h-40.463v-42.227h161.85v42.227h-40.463v168.908h-121.388v-42.227h40.463zM475.238 614.467v-84.454h80.925v84.454h-80.925z" />
<glyph unicode="&#xe906;" glyph-name="our-neighborhoods" d="M343.262 261.78h67.926v108.355h-67.926zM271.375 403.895h66.526v69.021h-66.526zM411.188 403.895h66.526v69.021h-66.526zM895.167 354.765l-57.598 194.151h17.628c1.819 2.57 2.334 5.86 1.448 8.865l-54.834 182.033c-1.269 4.172-4.954 6.978-9.167 6.978-4.201 0-7.898-2.806-9.155-6.978l-53.015-176.011c14.959-5.724 26.172-19.493 28.745-36.28 37.122-4.656 65.963-37.546 65.963-77.265 0-42.922-33.664-77.837-75.035-77.837-6.45 0-12.757 0.819-18.884 2.52-11.967-9.995-25.993-16.638-40.952-19.593l-0.18-0.584c-1.448-4.855-0.562-10.181 2.334-14.266h84.704v-79.004h30.947v79.004h84.704c2.944 4.122 3.794 9.411 2.346 14.266v0zM750.196 388.474c32.862 0 59.561 27.638 59.561 61.783s-26.699 61.795-59.561 61.795c-2.429 0-4.859-0.199-7.24-0.484 0.79 2.756 1.352 5.674 1.352 8.729 0 16.774-13.14 30.357-29.26 30.357-8.413 0-15.94-3.737-21.314-9.647v0.236c0 44.474-34.789 80.568-77.655 80.568-14.959 0-28.889-4.47-40.76-12.081-10.89 14.502-27.86 23.864-46.936 23.864-31.641 0-57.455-25.614-59.369-57.909l-2.8 1.552-84.8 46.262-82.323-42.674v23.715h-49.269v-49.28l-87.696-45.493 14.576-30.208 32.312 16.774v-32.642h-201.014v-201.849h32.958l-0.383 44.226v123.776h168.487v-168.052h32.575v251.376l139.406 72.311 129.39-70.623v-219.318h-0.096v-33.797h32.683v98.894c6.211 1.105 12.242 2.806 17.951 5.178l48.994-104.32h34.394l-33.185 70.71 43.752 39.781c5.804-1.465 11.836-2.285 18.047-2.285 21.362 0 40.677 8.927 54.69 23.38 6.929-2.955 14.54-4.606 22.534-4.606v0zM597.099 362.14l-9.765 20.847c7.755 7.326 14.301 16.104 19.124 25.9 4.811-8.294 10.974-15.657 18.274-21.679l-27.632-25.068z" />
<glyph unicode="&#xe907;" glyph-name="lifestyle" d="M494.472 219.136c17.125 0 32.353 12.222 35.591 29.824l28.964 155.645c2.683 14.473-3.554 29.213-15.806 37.261l-143.833 94.884c-16.813 11.054-39.234 6.314-50.216-10.557-10.977-16.872-6.273-39.503 10.488-50.567l123.622-81.519-24.512-131.736c-3.694-19.822 9.269-38.888 28.964-42.623 2.265-0.404 4.549-0.598 6.726-0.598v0zM580.389 580.937c12.963 0 25.472 7.298 31.594 19.79 8.554 17.534 1.362 38.749-16.063 47.364l-176.171 87.13c-17.42 8.617-38.475 1.37-47.027-16.164-8.573-17.53-1.376-38.73 16.047-47.364l176.185-87.11c4.962-2.454 10.228-3.626 15.439-3.626v0zM379.404 806.981c0-76.528 114.008-76.528 114.008 0 0 76.52-114.008 76.52-114.008 0zM779.806 74.037c94.155 0 170.717 77.141 170.717 171.906 0 94.834-76.595 171.906-170.717 171.906-94.175 0-170.717-77.076-170.717-171.906 0-94.817 76.595-171.906 170.717-171.906v0zM779.806 390.265c79.020 0 143.311-64.742 143.311-144.327 0-79.569-64.293-144.312-143.311-144.312-79.034 0-143.328 64.742-143.328 144.312 0 79.589 64.293 144.327 143.328 144.327v0zM779.806 97.029h0.052c81.562 0 147.876 66.781 147.876 148.916s-66.315 148.916-147.876 148.916c-81.507 0-147.876-66.781-147.876-148.916s66.263-148.916 147.82-148.916v0zM779.806 387.52c77.502 0 140.577-63.518 140.577-141.58 0-78.038-63.074-141.565-140.577-141.565h-0.052c-77.518 0-140.541 63.518-140.541 141.565 0 78.054 63.074 141.58 140.592 141.58v0zM251.88 77.253c94.175 0 170.717 77.127 170.717 171.888 0 94.834-76.595 171.906-170.717 171.906-94.155 0-170.7-77.127-170.7-171.906 0-94.817 76.595-171.888 170.7-171.888v0zM251.88 393.486c79.034 0 143.328-64.742 143.328-144.327 0-79.569-64.293-144.312-143.328-144.312-79.020 0-143.311 64.742-143.311 144.312 0 79.589 64.293 144.327 143.311 144.327v0zM251.88 99.325c81.562 0 147.893 66.781 147.893 148.916s-66.334 148.916-147.893 148.916c-81.562 0-147.876-66.781-147.876-148.916s66.367-148.916 147.876-148.916v0zM251.88 389.808c77.518 0 140.592-63.518 140.592-141.58 0-78.038-63.074-141.58-140.592-141.58-77.502 0-140.577 63.528-140.577 141.58 0 78.054 63.074 141.58 140.577 141.58v0zM496.194 224.588c4.565 0 8.66 2.757 10.436 6.93 0.856 1.987 84.853 198.41 181.396 191.675 6.221-0.352 11.638 4.327 12.040 10.66 0.418 6.314-4.303 11.715-10.576 12.119-102.363 6.789-183.723-160.999-200.621-198.462l-220.829 3.114c97.555 252.493 407.329 213.146 410.521 212.695 6.237-0.877 11.9 3.516 12.771 9.789 0.856 6.209-3.502 11.977-9.722 12.839-3.45 0.51-343.545 43.689-440.458-242.818-1.167-3.464-0.609-7.282 1.481-10.245 2.074-3.007 5.454-4.785 9.115-4.84l244.472-3.464zM490.018 229.073c1.167 0 2.336 0.211 3.502 0.616 5.366 1.948 8.103 7.863 6.185 13.259l-64.956 181.493c-1.934 5.4-7.858 8.16-13.175 6.226-5.366-1.948-8.103-7.863-6.168-13.259l64.943-181.493c1.481-4.186 5.468-6.841 9.667-6.841v0zM382.646 467.612c2.837 0 5.784 0.249 8.66 0.862 24.25 4.785 40.043 28.457 35.338 52.869-6.377 33.382-11.653 112.757 13.015 144.872 15.141 19.681 11.534 48.028-8.048 63.265-19.545 15.245-47.691 11.625-62.831-8.108-56.14-73.114-32.91-202.796-30.073-217.318 4.251-21.577 22.981-36.451 43.939-36.451v0zM779.806 229.073c1.464 0 2.93 0.316 4.355 0.984 5.158 2.444 7.387 8.565 4.962 13.757l-92.397 199.238-12.214 62.506c11.653 9.18 35.743 31.658 29.47 56.081-6.535 25.538-43.23 40.891-112.195 46.945-5.663 0.565-10.628-3.718-11.133-9.431-0.505-5.717 3.694-10.712 9.373-11.221 79.382-7.034 92.241-24.36 94.071-31.502 3.241-12.631-16.569-30.938-26.636-37.868-3.398-2.353-5.122-6.473-4.303-10.557l13.712-70.196c0.156-0.809 0.418-1.619 0.763-2.391l92.958-200.359c1.672-3.718 5.366-5.961 9.217-5.961v0z" />
<glyph unicode="&#xe908;" glyph-name="our-homes" d="M786.498 574.61c7.673 0 13.888 6.333 13.888 14.127v56.859c0 5.573-3.232 10.631-8.249 12.909l-274.493 124.052c-3.593 1.622-7.696 1.622-11.28 0l-157.023-70.962v27.985c0 7.794-6.226 14.114-13.89 14.114-7.673 0-13.89-6.32-13.89-14.114v-40.538l-89.698-40.538c-5.020-2.278-8.251-7.335-8.251-12.909v-56.859c0-7.794 6.215-14.127 13.89-14.127h27.688v-306.552h-27.688c-7.675 0-13.89-6.32-13.89-14.114 0-7.803 6.215-14.123 13.89-14.123h548.998c7.673 0 13.888 6.32 13.888 14.123 0 7.794-6.215 14.114-13.888 14.114h-27.691v306.552h27.691zM512.005 754.2l209.046-94.489h-418.104l209.058 94.489zM251.389 602.86v28.608h521.23v-28.608h-521.23zM373.469 268.058v110.352h52.618v-110.352h-52.618zM731.029 268.058h-277.173v124.479c0 7.791-6.215 14.127-13.89 14.127h-80.388c-7.673 0-13.89-6.335-13.89-14.127v-124.479h-52.72v306.552h438.062v-306.552zM525.599 376.147c-7.896 0-14.305 6.517-14.305 14.56v105.021c0 8.043 6.408 14.56 14.305 14.56h121.996c7.911 0 14.317-6.517 14.317-14.56v-105.021c0-8.043-6.405-14.56-14.317-14.56h-121.996zM600.919 405.268h32.37v75.901h-32.37v-75.901zM539.915 405.268h32.37v75.913h-32.37v-75.913z" />
<glyph unicode="&#xe909;" glyph-name="footer-locations" d="M402.6 277.877h-108.432l-87.591-144.040h603.096l-86.093 144.040h-115.608v-40h104.262l-17.167 9.739 62.185-104.040 17.167 30.261h-532.272l17.089-30.391 63.267 104.040-17.089-9.609h97.187zM485.765 218.202v0c-1.108 1.321-2.249 2.686-3.421 4.091 1.551 1.777 3.28 3.771 5.176 5.974 7.154 8.309 15.143 17.785 23.758 28.247 24.619 29.899 49.235 61.62 72.141 93.685 18.544 25.959 35.159 51.038 49.346 74.773 32.687 54.684 50.561 99.407 50.561 126.872 0 97.347-78.284 176.155-174.719 176.155s-174.719-78.808-174.719-176.155c0-27.465 17.874-72.189 50.561-126.872 14.187-23.735 30.802-48.814 49.346-74.773 22.906-32.065 47.523-63.786 72.141-93.685 8.614-10.462 16.604-19.938 23.758-28.247 1.896-2.202 3.625-4.197 5.176-5.974-1.172-1.405-2.313-2.77-3.421-4.091h-45.685zM508.607 191.586v0c0 0-214.719 240.88-214.719 360.259s96.133 216.155 214.719 216.155c118.586 0 214.719-96.776 214.719-216.155s-214.719-360.259-214.719-360.259v0zM508.607 519.793v0c17.377 0 31.573 14.291 31.573 32.052s-14.196 32.052-31.573 32.052c-17.377 0-31.573-14.291-31.573-32.052s14.196-32.052 31.573-32.052v0zM508.607 479.793v0c-39.529 0-71.573 32.259-71.573 72.052s32.044 72.052 71.573 72.052c39.529 0 71.573-32.259 71.573-72.052s-32.044-72.052-71.573-72.052v0z" />
<glyph unicode="&#xe90a;" glyph-name="quick-move-in" d="M303.441 532.816c-24.536 24.536-24.536 63.796-0.614 87.718s63.796 23.922 87.718-0.614c24.536-24.536 24.536-63.796 0.614-87.718s-63.796-23.922-87.718 0.614zM372.143 601.518c-14.108 14.108-36.804 14.721-50.914 0.614s-13.496-36.804 0.614-50.914c14.108-14.108 36.804-14.721 50.914-0.614 13.496 14.108 13.496 36.804-0.614 50.914zM724.854 195.44l-222.055 222.055c-4.907 4.907-4.907 13.496 0 18.402s13.496 4.907 18.402 0l222.055-222.055c4.907-4.907 4.907-13.496 0-18.402s-13.496-4.907-18.402 0zM221.243 403.387c-66.863 66.249-61.954 188.932 10.429 261.313l19.63 19.63c69.316 69.316 174.208 69.93 242.91 0.614 44.78-44.78 52.753-125.75 38.032-185.864l266.221-266.221c1.839-1.839 3.067-4.295 3.681-7.362l12.882-80.356c0.614-3.681-0.614-7.362-3.067-10.429s-5.52-4.907-9.815-4.907l-147.219-6.748c-3.681 0-7.362 1.228-9.815 3.681l-33.737 33.737c-1.839 1.839-3.067 4.295-3.681 6.748l-15.335 71.155-58.273 31.898c-2.453 1.228-4.907 3.681-6.134 6.748l-23.31 56.434-72.997 11.041c-2.453 0.614-5.52 1.839-7.362 3.681l-29.445 29.445c-26.989-9.815-114.095-33.737-173.595 25.764zM475.809 666.54c-58.273 58.273-146.605 57.661-205.492-1.228l-18.402-18.402c-56.434-56.434-72.997-164.394-11.654-225.122 57.048-57.048 152.125-17.176 153.353-17.176 4.907 1.839 10.429 1.228 14.108-3.067l32.512-32.512 76.064-11.654c4.295-0.614 8.587-3.681 9.815-7.974l24.536-58.887 59.501-32.512c3.681-1.839 5.52-4.907 6.748-8.587l15.949-72.997 26.989-26.989 126.364 6.134-9.815 61.954-268.060 268.674c-3.681 3.681-4.907 8.587-3.067 12.882 14.721 51.527 9.815 128.203-29.445 167.461z" />
<glyph unicode="&#xe90b;" glyph-name="locations" d="M674.907 592.072h42.738c21.84 0 39.552-17.658 39.552-39.446v-359.865c0-21.815-17.681-39.446-39.59-39.446h-403.214c-21.863 0-39.59 17.66-39.59 39.446v359.865c0 21.788 17.727 39.446 39.605 39.446h35.095v35.839h-35.095c-41.751 0-75.587-33.704-75.587-75.285v-359.865c0-41.577 33.834-75.285 75.571-75.285h403.214c41.789 0 75.571 33.685 75.571 75.285v359.865c0 41.574-33.814 75.285-75.534 75.285h-42.738v-35.839zM709.459 680.909h105.149c21.883 0 39.622-17.648 39.622-39.394v-537.645c0-21.751-17.717-39.394-39.557-39.394h-597.344c-21.843 0-39.557 17.644-39.557 39.394v537.645c0 21.739 17.733 39.394 39.545 39.394h110.609v35.839h-110.609c-41.681 0-75.526-33.697-75.526-75.233v-537.645c0-41.543 33.823-75.233 75.539-75.233h597.344c41.71 0 75.539 33.686 75.539 75.233v537.645c0 41.548-33.857 75.233-75.604 75.233h-105.149v-35.839zM530.538 348.221c-0.302 0.405-0.916 1.238-1.822 2.478-1.529 2.093-3.308 4.553-5.316 7.361-5.758 8.052-12.182 17.256-19.105 27.451-19.791 29.142-39.583 60.335-58.033 92.281-18.84 32.62-35.206 64.203-48.375 94.017-22.18 50.218-34.352 93.351-34.643 126.671-0.709 81.312 65.014 131.787 154.396 132.178 87.774 0.384 155.564-48.063 155.564-120.549 0-34.091-17.151-86.003-47.916-149.868-11.014-22.863-23.569-46.844-37.376-71.605-18.968-34.018-39.314-67.785-59.659-99.739-7.12-11.182-13.727-21.334-19.652-30.262-2.068-3.117-3.902-5.856-5.479-8.192-0.938-1.39-1.577-2.329-1.896-2.794l29.31 0.572zM501.637 326.873l15.058-20.224 14.252 20.796c0.365 0.533 1.052 1.542 2.038 3.003 1.629 2.413 3.515 5.23 5.636 8.427 6.046 9.111 12.776 19.451 20.021 30.829 20.696 32.505 41.392 66.854 60.729 101.532 14.136 25.351 27.017 49.955 38.361 73.502 32.949 68.399 51.457 124.418 51.457 165.372 0 95.345-86.063 156.85-191.704 156.388-107.499-0.47-191.123-64.693-190.219-168.328 0.341-39.123 13.715-86.514 37.688-140.792 13.733-31.094 30.678-63.793 50.121-97.457 18.92-32.759 39.169-64.672 59.419-94.49 7.091-10.441 13.68-19.881 19.601-28.161 2.079-2.908 3.929-5.467 5.529-7.656 0.971-1.329 1.65-2.249 2.016-2.741v0z" />
<glyph unicode="&#xe90c;" glyph-name="footer-phone" d="M360.95 731.516c-16.762-0.014-71.504-28.152-75.611-90.294-5.228-80.758 2.004-172.479 89.485-295.607 87.537-123.257 170.8-158.846 247.728-178.946 8.339-2.198 16.762-3.312 25.045-3.312 47.651 0 80.95 36.96 82.814 48.695 6.167 49.751-1.458 54.019-51.126 81.857-5.438 3.041-11.268 6.31-17.533 9.893-22.48 12.862-39.004 19.115-50.538 19.115-9.026 0-14.393-3.783-23.895-11.021-2.901-2.213-5.9-4.483-9.124-6.667-12.796-8.708-23.531-12.748-33.804-12.748-12.123 0-20.896 6.039-25.605 9.279-11.674 8.137-63.137 60.343-83.263 88.638-20.182 28.38-52.682 94.462-56.536 108.21-5.396 19.144-3.756 36.103 21.765 56.403 3.055 2.427 6.096 4.611 9.068 6.71 16.496 11.763 26.46 18.858 15.683 74.605-1.359 7.138-2.565 13.762-3.7 19.929-10.385 56.817-11.997 65.54-60.853 75.262zM647.598 134.805c-10.637 0-21.415 1.413-32.038 4.197-82.001 21.442-170.688 59.273-263.453 189.881-92.667 130.452-100.291 228.112-94.741 314.237 5.326 80.444 79.423 121.272 108.518 116.504 67.986-13.519 72.527-38.287 83.487-98.146 1.107-6.081 2.298-12.62 3.644-19.643 13.272-68.695-2.873-86.225-27.133-103.499-2.579-1.842-5.228-3.726-7.89-5.824-15.837-12.605-14.407-17.688-12.053-26.082 2.831-10.093 33.832-73.349 52.276-99.273 18.906-26.567 67.566-75.676 76.339-81.786 4.233-2.927 6.825-4.34 9.838-4.34 4.303 0 10.609 2.741 18.247 7.937 2.789 1.899 5.368 3.869 7.89 5.796 10.287 7.837 21.919 16.703 40.685 16.703 16.692 0 37.112-7.238 64.258-22.77 6.209-3.54 11.969-6.767 17.322-9.765 52.318-29.337 73.985-41.471 65.366-110.937-4.12-26.125-49.15-73.192-110.564-73.192z" />
<glyph unicode="&#xe90d;" glyph-name="blog" d="M852.82 505.405c4.294 8.573 4.294 21.447 0 30.021l-30.037 30.021c-4.294 4.291-8.587 4.291-17.165 4.291-4.294 0-12.872 0-17.165-4.291l-231.724-227.318v-60.041h68.66l227.431 227.318zM292.728 622.843h429.128v42.894h-429.128zM292.728 534.852h399.091l30.046 30.021v12.865h-429.137zM292.728 278.843h214.569v42.894h-214.569zM292.728 454.843h313.266l42.917 42.894h-356.183zM808.416 407.724v-171.559c0-47.177-38.615-85.771-85.816-85.771h-429.137c-47.202 0-85.816 38.594-85.816 85.771v428.908c0 47.177 38.615 85.771 85.816 85.771h429.137c47.202 0 85.816-38.594 85.816-85.771v-51.477c12.881 0 25.752-8.573 38.624-17.147l4.294-4.291v72.915c0 72.906-55.789 128.665-128.734 128.665h-429.137c-72.945 0-128.734-55.759-128.734-128.665v-428.908c0-72.906 55.789-128.665 128.734-128.665h429.137c72.945 0 128.734 55.759 128.734 128.665v214.454l-42.917-42.894zM292.728 366.852h227.44l42.917 42.885h-270.357z" />
<glyph unicode="&#xe90e;" glyph-name="models" d="M921.178 522.776c2.526-1.993 5.597-3.017 8.693-3.017 2.086 0 4.181 0.465 6.128 1.41 4.84 2.351 7.913 7.266 7.913 12.653v75.003c0 4.309-1.972 8.38-5.351 11.046l-228.616 180.379c-16.033 12.651-38.429 12.649-54.462 0l-86.047-67.892v26.472c0 7.767-6.287 14.063-14.043 14.063h-59.916c-7.755 0-14.043-6.296-14.043-14.063v-95.908l-54.565-43.051c-3.38-2.666-5.351-6.737-5.351-11.046v-75.003c0-5.387 3.073-10.302 7.913-12.653 4.838-2.351 10.596-1.729 14.822 1.605l7.224 5.7v-137.041l-130.986 103.348c-16.033 12.651-38.429 12.651-54.462 0l-183.677-144.92c-3.38-2.664-5.351-6.737-5.351-11.046v-75.003c0-5.387 3.073-10.302 7.913-12.653 1.947-0.947 4.042-1.41 6.128-1.41 3.095 0 6.168 1.024 8.693 3.017l7.224 5.7v-145.597h-15.915c-7.755 0-14.043-6.296-14.043-14.063s6.287-14.063 14.043-14.063h838.826c7.755 0 14.043 6.296 14.043 14.063s-6.287 14.063-14.043 14.063h-15.915v415.606l7.224-5.7zM509.521 744.767h31.83v-34.571l-31.83-25.115v59.685zM449.604 602.001l223.262 176.155c5.799 4.575 13.901 4.575 19.699 0l223.261-176.155v-39.194l-224.42 177.068c-2.548 2.012-5.619 3.017-8.692 3.017s-6.141-1.005-8.692-3.017l-224.42-177.068v39.194zM105.087 331.992l178.325 140.699c5.799 4.575 13.901 4.575 19.699 0l148.365-117.062v-39.196l-149.524 117.977c-5.098 4.024-12.285 4.024-17.381 0l-179.484-141.614v39.196zM135.045 280.626l158.216 124.832 158.216-124.834v-167.756h-61.788v165.943c0 7.767-6.287 14.063-14.043 14.063h-164.769c-7.755 0-14.043-6.296-14.043-14.063v-165.943h-61.788v167.758zM224.919 204.748h136.684v-31.876h-136.684v31.876zM361.603 232.874h-136.684v31.876h136.684v-31.876zM224.919 144.746h136.684v-31.876h-136.684v31.876zM631.225 217.827c-0.311 0.021-0.624 0.047-0.936 0.047-3.689 0-7.321-1.5-9.924-4.125-2.621-2.606-4.119-6.244-4.119-9.938s1.498-7.332 4.119-9.938c2.603-2.625 6.235-4.125 9.924-4.125 0.313 0 0.625 0.026 0.936 0.047v-76.925h-61.788v181.881h61.788v-76.925zM885.869 112.87h-226.558v195.944c0 7.767-6.287 14.063-14.043 14.063h-89.874c-7.755 0-14.043-6.296-14.043-14.063v-195.944h-61.788v437.766l203.153 160.29 203.153-160.29v-437.766zM723.044 173.607h89.874c7.755 0 14.043 6.296 14.043 14.063v120.004c0 7.767-6.287 14.063-14.043 14.063h-89.874c-7.755 0-14.043-6.296-14.043-14.063v-120.004c0-7.767 6.287-14.063 14.043-14.063v0zM737.087 201.733v46.877h61.788v-46.877h-61.788zM798.875 293.612v-16.876h-61.788v16.876h61.788zM723.044 381.607h89.874c7.755 0 14.043 6.296 14.043 14.063v120.004c0 7.767-6.287 14.063-14.043 14.063h-89.874c-7.755 0-14.043-6.296-14.043-14.063v-120.004c0-7.767 6.287-14.063 14.043-14.063v0zM737.087 409.733v46.877h61.788v-46.877h-61.788zM798.875 501.612v-16.876h-61.788v16.876h61.788zM644.918 529.738h-89.874c-7.755 0-14.043-6.296-14.043-14.063v-120.004c0-7.767 6.287-14.063 14.043-14.063h89.874c7.755 0 14.043 6.296 14.043 14.063v120.004c0 7.767-6.287 14.063-14.043 14.063v0zM630.875 501.612v-16.876h-61.788v16.876h61.788zM569.087 409.733v46.877h61.788v-46.877h-61.788z" />
<glyph unicode="&#xe90f;" glyph-name="equal-housing" d="M507.908 736l-395.908-198.897v-93.417h44.308v-280.262h700.232v280.262h53.211v93.417l-401.843 198.897zM241.995 503.962l265.914 138.615 262.962-138.615v-256.12h-528.876v256.12zM384 429.621h245.211v90.379h-245.211zM384 301.555h245.211v90.445h-245.211z" />
<glyph unicode="&#xe910;" glyph-name="footer-facebook" d="M783.104 720.043c-74.667 74.283-165.888 111.957-271.104 111.957-106.197 0-197.675-37.717-271.915-112-74.368-74.283-112.085-165.845-112.085-272 0-105.173 37.675-196.395 111.957-271.104 74.283-74.923 165.803-112.896 272.043-112.896 105.259 0 196.48 37.973 271.189 112.768 74.88 74.795 112.811 166.059 112.811 271.232 0 106.155-37.973 197.717-112.896 272.043zM722.859 237.099c-48.512-48.597-103.936-76.288-168.192-84.693v210.261h85.333v85.333h-85.333v59.733c0 14.123 11.477 25.6 25.643 25.6h59.691v85.333h-59.605c-31.659 0-58.069-11.648-79.232-35.072-21.163-23.339-31.829-51.84-31.829-85.675v-49.92h-85.333v-85.333h85.333v-210.347c-64.939 8.32-120.576 36.053-168.832 84.651-58.667 59.051-87.168 128.085-87.168 211.029 0 83.883 28.459 153.088 87.125 211.627 58.453 58.581 127.659 87.040 211.541 87.040 82.987 0 151.979-28.501 210.987-87.168 59.008-58.539 87.68-127.744 87.68-211.499 0-82.816-28.715-151.851-87.808-210.901z" />
<glyph unicode="&#xe911;" glyph-name="slider-next" d="M512-32c-264.672 0-480 215.328-480 480s215.328 480 480 480c264.672 0 480-215.328 480-480s-215.328-480-480-480zM512 864c-229.376 0-416-186.624-416-416s186.624-416 416-416c229.376 0 416 186.624 416 416s-186.624 416-416 416zM432.704 207.904l-45.696 44.768 201.824 206.144-201.6 201.6 45.248 45.248 246.432-246.368z" />
<glyph unicode="&#xe912;" glyph-name="slider-previous" d="M512-32c-264.672 0-480 215.328-480 480s215.328 480 480 480c264.672 0 480-215.328 480-480s-215.328-480-480-480zM512 864c-229.376 0-416-186.624-416-416s186.624-416 416-416c229.376 0 416 186.624 416 416s-186.624 416-416 416zM569.152 207.904l45.728 44.768-201.856 206.144 201.6 201.6-45.248 45.248-246.4-246.368z" />
<glyph unicode="&#xe913;" glyph-name="error-x" d="M764.416 291.997c-0.004 0.004-0.004 0.004-0.004 0.004l-155.995 155.995 155.995 155.995c0.004 0.004 0.004 0.004 0.004 0.004 1.68 1.682 2.893 3.643 3.672 5.733 2.134 5.712 0.916 12.394-3.676 16.99l-73.69 73.69c-4.596 4.594-11.274 5.806-16.988 3.676-2.088-0.779-4.054-1.992-5.733-3.67 0-0.004-0.004-0.004-0.004-0.004l-155.995-155.996-155.995 155.995c-0.004 0.004-0.004 0.004-0.004 0.004-1.682 1.678-3.643 2.893-5.733 3.67-5.716 2.134-12.394 0.916-16.99-3.676l-73.692-73.692c-4.596-4.596-5.808-11.276-3.676-16.988 0.779-2.088 1.994-4.055 3.672-5.733 0.004-0.002 0.004-0.004 0.004-0.004l155.995-155.995-155.995-155.996c-0.002-0.004-0.004-0.004-0.004-0.004-1.678-1.682-2.893-3.643-3.674-5.733-2.134-5.712-0.916-12.394 3.676-16.99l73.692-73.69c4.596-4.596 11.276-5.808 16.99-3.676 2.088 0.779 4.054 1.994 5.733 3.672 0.002 0.004 0.004 0.004 0.004 0.004l155.995 155.995 155.995-155.995c0.004-0.002 0.004-0.004 0.004-0.004 1.682-1.68 3.643-2.893 5.733-3.674 5.714-2.134 12.396-0.916 16.988 3.676l73.69 73.692c4.596 4.596 5.81 11.277 3.676 16.99-0.779 2.088-1.994 4.052-3.674 5.733z" />
<glyph unicode="&#xe914;" glyph-name="checkmark" d="M864 832l-480-480-224 224-160-160 384-384 640 640z" />
<glyph unicode="&#xe915;" glyph-name="warning" d="M512 736.217l295.007-587.967h-590.016l295.009 587.967zM512 800c-15.175 0-30.345-10.232-41.859-30.696l-300.489-598.89c-23.021-40.927-3.438-74.415 43.522-74.415h597.648c46.955 0 66.545 33.488 43.52 74.415h0.002l-300.489 598.89c-11.512 20.466-26.682 30.696-41.857 30.696v0zM556 228c0-24.301-19.699-44-44-44s-44 19.699-44 44c0 24.301 19.699 44 44 44s44-19.699 44-44zM512 316c-24.301 0-44 19.699-44 44v132c0 24.301 19.699 44 44 44s44-19.699 44-44v-132c0-24.301-19.699-44-44-44z" />
<glyph unicode="&#xe916;" glyph-name="sq-ft-main-floor" d="M258.764 248.305l25.303-22.973c2.85-2.577 4.386-5.948 4.386-9.467s-1.537-6.889-4.362-9.442c-6.196-5.601-17.199-5.601-23.345-0.025l-50.878 46.244c-2.825 2.553-4.386 5.923-4.386 9.442s1.561 6.865 4.386 9.442l50.853 46.219c6.171 5.551 17.149 5.576 23.345 0 2.825-2.577 4.386-5.923 4.386-9.467 0-3.519-1.561-6.889-4.386-9.467l-25.352-22.948h535.993l-25.328 22.948c-2.875 2.602-4.436 5.948-4.436 9.467 0.025 3.544 1.561 6.889 4.436 9.467 6.171 5.551 17.149 5.551 23.271 0l50.903-46.194c2.825-2.602 4.386-5.948 4.386-9.467s-1.561-6.889-4.386-9.467l-50.878-46.219c-6.146-5.551-17.125-5.601-23.32 0.025-2.85 2.577-4.411 5.923-4.411 9.442s1.561 6.865 4.436 9.467l25.228 22.973h-535.844zM870.427 182.376l-0.127 365.144 49.506-23.551v-366.102c0-13.687-11.095-24.782-24.782-24.782h-763.889c-13.687 0-24.782 11.095-24.782 24.782v363.287l49.567 23.646v-360.8l714.507-1.624zM526.639 765.6l459.212-218.278c12.361-5.876 17.619-20.66 11.743-33.022s-20.66-17.619-33.022-11.743l-459.212 218.278h21.278l-459.212-218.278c-12.361-5.876-27.146-0.618-33.022 11.743s-0.618 27.146 11.743 33.022l459.212 218.278c6.732 3.2 14.546 3.2 21.278 0z" />
<glyph unicode="&#xe917;" glyph-name="baths" d="M594.558 804.090c-1.695 0.116-3.414 0.174-5.154 0.174-31.295 0-55.797-19.040-55.797-43.348s24.515-43.348 55.797-43.348c31.28 0 55.783 19.040 55.783 43.348 0 1.715-0.122 3.404-0.36 5.062 27.515 2.256 57.399-5.729 88.713-22.149 30.027-15.745 56.716-36.549 76.779-55.936v-216.655c-49.106-8.723-107.411-31.464-175.701-71.165-78.127-45.403-173.922-69.921-266.201-69.921-108.22 0-198.317 33.643-239.698 91.215l-32.719 45.52 10.774-55.013c0.413-2.111 1.212-6.009 2.379-11.439 1.939-9.017 4.215-19.057 6.815-29.865 7.432-30.899 15.971-61.808 25.509-90.719 22.754-68.972 47.202-115.734 75.512-132.335l2.867-1.681h617.103l3.294 7.067c0.755 1.62 2.157 4.663 4.114 8.966 3.253 7.155 6.877 15.243 10.778 24.102 11.145 25.309 22.29 51.738 32.699 77.99 5.342 13.471 10.358 26.573 14.993 39.206 26.236 71.511 38.344 121.377 31.091 145.977l-2.588 8.776h-9.15c8.181-2.473 9.388-3.393 2.773 0.818-3.846 2.448-8.476 4.841-13.923 7.037-14.728 5.937-32.942 9.491-54.824 9.625v226.45c0 6.341-2.436 12.431-6.823 17.021-5.338 5.568-13.76 13.569-24.914 22.956-17.79 14.972-37.322 28.949-58.162 40.771-58.892 33.408-117.508 43.982-171.758 21.494zM856.215 438.255c21.411-0.167 35.207-4.456 42.705-7.754-0.278-38.068-41.746-150.504-85.958-247.523h-581.795c-24.73 21.033-50.979 91.491-69.796 160.231 53.256-32.154 125.604-50.198 207.034-50.198 100.624 0 201.865 26.649 285.105 74.99 90.439 52.591 152.112 67.551 190.254 69.906h12.45v0.349zM264.020 83.995h100.749v49.379h-112.986v-49.379h12.237zM665.71 83.995h100.749v49.379h-112.986v-49.379h12.237zM541.491 671.588l-22.114 11.867 7.409 13.524 22.112-11.867-7.408-13.524zM505.516 605.911l-22.111 11.88 17.998 32.838 22.114-11.879-18.001-32.839zM469.506 540.236l-22.112 11.879 17.999 32.839 22.112-11.88-17.999-32.838zM433.508 474.573l-22.111 11.879 17.998 32.839 22.112-11.88-17.999-32.838zM397.511 408.909l-22.112 11.867 17.999 32.838 22.112-11.879-17.999-32.826zM590.846 651.751l-24.325 6.388 9.684 36.114 24.326-6.389-9.685-36.113zM571.501 579.537l-24.325 6.389 9.684 36.113 24.326-6.389-9.685-36.113zM552.156 507.31l-24.326 6.389 9.673 36.113 24.325-6.388-9.672-36.114zM532.798 435.084l-24.312 6.401 9.672 36.101 24.325-6.389-9.685-36.113zM519.165 384.203l-24.326 6.376 3.962 14.794 24.326-6.376-3.962-14.794zM648.969 639.236l-25.106 1.619 2.441 37.284 25.105-1.619-2.44-37.284zM644.089 564.669l-25.106 1.619 2.441 37.284 25.106-1.619-2.441-37.284zM639.196 490.113l-25.106 1.619 2.441 37.284 25.105-1.619-2.44-37.284zM634.291 415.558l-25.106 1.607 2.44 37.284 25.106-1.619-2.44-37.272z" />
<glyph unicode="&#xe918;" glyph-name="beds" d="M95 230.137c12.577 22.195 152.141 72.662 369.704 79.268 0.106 0 0.211-0.053 0.211-0.053 0.106 0 0.211 0.053 0.317 0.053 15.167 0.423 30.756 0.687 46.768 0.687 15.854 0 31.443-0.264 46.609-0.687 0.211 0 0.317-0.053 0.423-0.053l0.106 0.053c217.669-6.606 357.233-57.073 369.81-79.268v-85.979h-833.948v85.979zM286.669 331.864v82.65h158.747v-66.902c-54.378-2.484-108.702-7.927-158.747-15.748v0zM737.278 331.864c-50.044 7.821-104.316 13.264-158.747 15.748v66.902h158.747v-82.65zM188.905 560.948h646.031v-248.953c-18.284 4.756-37.89 9.142-58.605 13.053v108.967c0 10.78-8.772 19.553-19.553 19.553h-197.746c-10.833 0-19.606-8.772-19.606-19.553v-85.133c-9.195 0.159-18.337 0.264-27.427 0.264-9.195 0-18.39-0.106-27.585-0.264v85.133c0 10.78-8.772 19.553-19.5 19.553h-197.746c-10.833 0-19.606-8.772-19.606-19.553v-108.967c-20.662-3.911-40.374-8.297-58.658-13.053v248.953zM75.5 105.053h872.842c10.886 0 19.658 8.719 19.658 19.553v106.906c0 26.211-36.674 49.833-93.959 68.963v279.973c0 10.78-8.772 19.553-19.5 19.553h-685.136c-10.833 0-19.606-8.772-19.606-19.553v-279.973c-57.178-19.13-93.8-42.752-93.8-69.016v-106.853c0-10.833 8.667-19.553 19.5-19.553v0z" />
<glyph unicode="&#xe919;" glyph-name="garage" d="M588.496 288.032h14.808c7.344 0 13.288 5.896 13.288 13.128 0 7.168-5.944 13.064-13.288 13.064h-14.808c-7.216 0-13.168-5.896-13.168-13.064 0-7.232 5.952-13.128 13.168-13.128zM985.848 547.32l-72.744 34.576c-2.784 2.152-6.024 3.72-9.552 4.536l-376.912 179.168c-6.736 3.2-14.544 3.2-21.28 0l-376.912-179.16c-3.536-0.816-6.776-2.392-9.552-4.544l-72.744-34.576c-12.36-5.88-17.616-20.664-11.744-33.024s20.664-17.624 33.016-11.744l41.848 19.896v-368.936c0-13.688 11.096-24.784 24.784-24.784h763.888c13.688 0 24.784 11.096 24.784 24.784v368.936l41.848-19.896c12.36-5.872 27.144-0.616 33.016 11.744 5.88 12.36 0.616 27.144-11.744 33.024zM516 715.776l357.16-169.776v-367.712h-714.32v367.712l357.16 169.776zM760 288.032h14.92c7.216 0 13.168 5.896 13.168 13.128 0 7.168-5.952 13.064-13.168 13.064h-14.92c-7.224 0-13.168-5.896-13.168-13.064 0-7.232 5.944-13.128 13.168-13.128zM252.496 288.032h14.808c7.344 0 13.288 5.896 13.288 13.128 0 7.168-5.944 13.064-13.288 13.064h-14.808c-7.216 0-13.168-5.896-13.168-13.064 0.008-7.232 5.952-13.128 13.168-13.128zM424 288.032h14.928c7.224 0 13.168 5.896 13.168 13.128 0 7.168-5.944 13.064-13.168 13.064h-14.928c-7.224 0-13.168-5.896-13.168-13.064 0-7.232 5.944-13.128 13.168-13.128zM246.56 236.192l-1.672 0.008v-16.328c0-7.216 5.944-13.128 13.288-13.128 7.224 0 13.168 5.904 13.168 13.128v16.256h148.712v-16.256c0-7.216 5.952-13.128 13.288-13.128 7.224 0 13.168 5.904 13.168 13.128v16.408c32.232 1.544 57.968 28 57.968 60.312v8.976c0 25.12-15.48 46.728-37.48 55.864l0.496-0.080c0 0-1.352 3.888-2.032 5.832-8.416 24.168-25.248 72.488-25.248 72.488-1.76 5.24-6.736 8.736-12.44 8.736h-164.264c-5.464 0-10.44-3.432-12.32-8.608 0 0-17.88-49.496-26.816-74.232-0.072-0.192-0.152-0.416-0.264-0.728-0.608-1.672-1.464-4.048-1.464-4.048l0.544 0.096c-21.4-9.416-36.368-30.648-36.368-55.312v-8.976c0-32.864 26.672-59.704 59.736-60.408zM272.856 422.2h145.696c0 0 13.656-37.2 20.584-56.112h-186.832l20.552 56.112zM213.28 305.568c0 18.912 15.536 34.32 34.592 34.32h195.696c19.048 0 34.584-15.408 34.584-34.32v-8.976c0-18.904-15.536-34.328-34.584-34.328h-195.696c-19.056 0-34.592 15.424-34.592 34.328v8.976zM580.888 236.28v-16.408c0-7.216 5.944-13.128 13.288-13.128 7.224 0 13.168 5.904 13.168 13.128v16.256h148.72v-16.256c0-7.216 5.952-13.128 13.288-13.128 7.224 0 13.168 5.904 13.168 13.128v16.408c32.24 1.544 57.968 28 57.968 60.312v8.976c0 25.12-15.48 46.728-37.472 55.864l0.496-0.080c0 0-1.352 3.888-2.040 5.832-8.416 24.168-25.248 72.488-25.248 72.488-1.76 5.24-6.736 8.736-12.44 8.736h-164.272c-5.464 0-10.44-3.432-12.32-8.608 0 0-17.88-49.496-26.824-74.232-0.064-0.192-0.144-0.416-0.256-0.728-0.6-1.672-1.464-4.048-1.464-4.048l0.536 0.096c-21.4-9.424-36.368-30.648-36.368-55.312v-8.976c0.016-32.312 25.776-58.76 58.072-60.32zM608.856 422.2h145.704c0 0 13.648-37.2 20.576-56.112h-186.84l20.56 56.112zM549.28 305.568c0 18.912 15.528 34.32 34.592 34.32h195.688c19.056 0 34.592-15.408 34.592-34.32v-8.976c0-18.904-15.536-34.328-34.592-34.328h-195.688c-19.064 0-34.592 15.424-34.592 34.328v8.976z" />
<glyph unicode="&#xe91a;" glyph-name="price" d="M895.962 475.996l-17.484 299.75c-2.197 20.972-18.013 36.681-37.805 38.664l-302.207 17.59c-12.686 0.041-23-4.13-30.989-11.962l-367.296-365.662c-16.243-16.171-16.243-41.679 0-57.85l318.624-317.208c16.246-16.174 41.733-16.174 57.92 0.067l367.145 365.461c8.010 8.1 12.131 18.438 12.131 29.732l-0.041 1.418zM847.292 474.578c0 1.35 0.803 3.364 2.079 4.654l-367.077-365.393c2.758 2.768 8.099 2.768 10.88-0.001l-318.624 317.208c2.882-2.869 2.882-8.322 0-11.191l367.162 365.53c-1.293-1.269-3.238-2.055-4.658-2.055l299.779-17.469c-4.169 0.396-6.556 2.767-6.888 5.898l17.389-298.599-0.041 1.418zM658.371 546.192c6.68-6.651 6.68-17.458-1.67-24.161l-27.609-27.486c4.227-21.667-1.67-44.113-16.753-59.129-6.68-6.651-16.701-6.651-23.381 0-6.68 6.703-6.68 16.679 0 23.329 13.361 13.353 9.238 40.84-9.238 59.129-18.371 18.341-45.98 22.498-59.393 9.145-13.309-13.301-9.133-40.788 9.238-59.129 31.784-31.591 36.012-79.913 9.238-106.567-15.083-15.795-37.682-20.783-59.445-16.627l-27.557-27.486c-6.733-6.703-16.701-6.703-23.434 0-6.68 6.651-6.68 16.679 0 23.329l20.093 19.121c-5.062 3.325-10.073 7.482-14.248 11.691-4.175 4.105-8.351 9.145-11.743 14.133l-18.371-18.341c-6.68-6.651-16.701-6.651-23.381 0-6.733 6.703-6.733 16.679 0 23.329l27.609 27.486c-4.227 21.667 1.618 44.113 16.701 59.129 6.68 6.651 16.753 6.651 23.434 0 6.628-6.651 6.628-16.679 0-23.329-13.361-13.301-9.238-40.788 9.186-59.129 18.371-18.341 45.98-22.498 59.393-9.145 13.361 13.353 9.186 40.788-9.238 59.129-31.784 31.643-35.959 79.913-9.238 106.567 15.135 15.795 37.682 20.835 59.445 16.679l27.557 27.434c6.733 6.703 16.753 6.703 23.486 0 6.68-6.651 6.68-16.627 0-23.278l-18.476-18.341c5.062-3.325 10.125-7.482 14.3-11.639s8.351-9.145 11.691-14.185l18.371 18.341c6.733 6.651 16.753 6.651 23.434 0zM742.011 656.121c-5.845-5.819-15.918-5.819-22.599 0-5.845 5.819-5.845 15.795 0 22.446 5.898 5.819 15.918 5.819 22.599 0 5.845-5.819 5.845-15.795 0-22.446zM696.031 701.897c-19.258-19.121-19.258-49.984 0-69.105 19.206-19.173 50.155-19.173 69.414 0 19.206 19.121 19.206 49.984 0 69.105-19.258 19.173-50.207 19.173-69.414 0z" />
<glyph unicode="&#xe91b;" glyph-name="sq-ft-total" d="M231.947 160.074h540.265l-540.265 547.777v-547.777zM211.541 120.466c-10.704 0-19.541 8.772-19.541 19.352v616.504c0 7.913 5.329 14.966 12.435 18.448 7.106 2.668 15.988 0.904 22.228-4.386l607.679-616.459c5.329-5.29 7.106-14.107 4.418-21.161-3.507-7.913-10.613-12.298-19.45-12.298h-607.77zM659.541 160.108v21.104c0 10.58 8.928 19.352 19.541 19.352s19.541-8.772 19.541-19.352v-21.104h-39.082zM536.735 160.108v21.104c0 10.58 8.928 19.352 19.541 19.352s19.541-8.772 19.541-19.352v-21.104h-39.082zM413.929 160.108v21.104c0 10.58 8.928 19.352 19.541 19.352s19.541-8.772 19.541-19.352v-21.104h-39.082zM294.911 160.108v21.104c0 10.58 8.928 19.352 19.541 19.352s19.541-8.772 19.541-19.352v-21.104h-39.082zM365.034 292.165h118.839l-118.839 120.633v-120.633zM530.926 252.557h-186.298c-10.704 0-19.541 8.772-19.541 19.352v189.36c0 7.913 5.329 14.966 12.435 18.493 7.106 2.668 15.942 0.859 22.183-4.386l186.344-189.36c5.284-5.29 7.060-14.107 4.373-21.161-3.553-7.913-11.524-12.298-19.495-12.298z" />
<glyph unicode="&#xe91c;" glyph-name="zoom-in" d="M992.262 88.604l-242.552 206.294c-25.074 22.566-51.89 32.926-73.552 31.926 57.256 67.068 91.842 154.078 91.842 249.176 0 212.078-171.922 384-384 384-212.076 0-384-171.922-384-384s171.922-384 384-384c95.098 0 182.108 34.586 249.176 91.844-1-21.662 9.36-48.478 31.926-73.552l206.294-242.552c35.322-39.246 93.022-42.554 128.22-7.356s31.892 92.898-7.354 128.22zM384 320c-141.384 0-256 114.616-256 256s114.616 256 256 256 256-114.616 256-256-114.614-256-256-256zM448 768h-128v-128h-128v-128h128v-128h128v128h128v128h-128z" />
<glyph unicode="&#xe91d;" glyph-name="play" d="M512 960c-282.77 0-512-229.23-512-512s229.23-512 512-512 512 229.23 512 512-229.23 512-512 512zM512 32c-229.75 0-416 186.25-416 416s186.25 416 416 416 416-186.25 416-416-186.25-416-416-416zM384 672l384-224-384-224z" />
<glyph unicode="&#xe91e;" glyph-name="help" d="M642 458.667c24 24 40 58 40 96 0 94-76 170-170 170s-170-76-170-170h84c0 46 40 86 86 86s86-40 86-86c0-24-10-44-26-60l-52-54c-30-32-50-74-50-120v-22h84c0 64 20 88 50 120zM554 128.667v84h-84v-84h84zM512 852.667c236 0 426-190 426-426s-190-426-426-426-426 190-426 426 190 426 426 426z" />
<glyph unicode="&#xe91f;" glyph-name="play2" d="M511.37 960c-282.422 0-511.37-227.82-511.37-508.85s228.948-508.85 511.37-508.85c282.422 0 511.37 227.82 511.37 508.85s-228.948 508.85-511.37 508.85v0zM511.37 37.71c-229.467 0-415.488 185.104-415.488 413.441s186.021 413.441 415.488 413.441c229.467 0 415.488-185.104 415.488-413.441s-186.021-413.441-415.488-413.441v0zM383.528 673.772l383.528-222.622-383.528-222.622v445.244z" />
<glyph unicode="&#xe920;" glyph-name="amenities-location" d="M506.525-53.049c279.746 0 506.525 226.779 506.525 506.525s-226.779 506.525-506.525 506.525c-279.746 0-506.525-226.779-506.525-506.525s226.779-506.525 506.525-506.525v0zM506.525-19.475c-261.204 0-472.951 211.747-472.951 472.951s211.747 472.951 472.951 472.951c261.204 0 472.951-211.747 472.951-472.951s-211.747-472.951-472.951-472.951v0zM643.351 669.62c-73.796 73.796-193.35 73.796-267.164 0-73.796-73.758-73.796-193.425 0-267.145 0.019 0 133.592-130.928 133.592-282.071 0 151.143 133.573 282.071 133.573 282.071 73.815 73.72 73.815 193.388 0 267.145v0zM509.778 460.476c-41.772 0-75.572 33.799-75.572 75.572s33.799 75.572 75.572 75.572c41.772 0 75.572-33.799 75.572-75.572s-33.799-75.572-75.572-75.572v0z" />
<glyph unicode="&#xe921;" glyph-name="amenities-low-maint" d="M506.525-53.049c279.746 0 506.525 226.779 506.525 506.525s-226.779 506.525-506.525 506.525c-279.746 0-506.525-226.779-506.525-506.525s226.779-506.525 506.525-506.525v0zM506.525-19.475c-261.204 0-472.951 211.747-472.951 472.951s211.747 472.951 472.951 472.951c261.204 0 472.951-211.747 472.951-472.951s-211.747-472.951-472.951-472.951v0zM778.643 634.773h-128.22v68.019c0 6.634-5.378 12.003-12.003 12.003h-312.088c-6.626 0-12.003-5.37-12.003-12.003v-544.153c0-6.626 5.378-12.003 12.003-12.003h312.088c6.626 0 12.003 5.378 12.003 12.003v364.102h128.22c29.744 0 55.832 25.919 55.832 55.472v1.408c0 29.896-25.567 55.151-55.832 55.151v0zM626.416 170.642h-288.081v520.146h288.081v-56.016h-82.279c-16.757 17.421-39.635 27.312-63.61 27.312-47.517 0-86.176-38.435-86.176-85.68 0-47.645 38.659-86.408 86.176-86.408 33.137 0 57.376 21.398 67.883 32.745h78.006v-352.099zM810.468 578.213c0-16.469-15.172-31.465-31.825-31.465h-235.666c-3.585 0-6.986-1.6-9.267-4.369-11.291-13.716-31.201-28.368-53.183-28.368-34.274 0-62.169 27.992-62.169 62.402 0 34.010 27.888 61.673 62.169 61.673 18.509 0 36.882-8.626 49.142-23.070 2.273-2.689 5.626-4.241 9.155-4.241h239.819c16.653-0.008 31.825-14.852 31.825-31.153v-1.408zM483.128 450.721h-1.504c-26.063 0-47.261-19.181-47.261-42.764v-22.238c0-12.451 5.866-24.015 16.004-32.065v-106.878c0-16.237 14.356-29.456 32.009-29.456s32.009 13.212 32.009 29.456v106.878c10.139 8.050 16.004 19.614 16.004 32.065v22.238c0 23.583-21.198 42.764-47.261 42.764v0zM506.383 385.719c0-6.026-3.721-11.747-9.947-15.3l-6.058-3.457v-120.194c0-2.577-3.289-5.45-8.002-5.45s-8.002 2.865-8.002 5.45v120.194l-6.058 3.457c-6.226 3.553-9.947 9.275-9.947 15.3v22.238c0 10.339 10.435 18.757 23.255 18.757h1.504c12.82 0 23.255-8.418 23.255-18.757v-22.238z" />
<glyph unicode="&#xe922;" glyph-name="amenities-scenery" d="M472.185 182.903c-0.281 0-0.562 0-0.894 0.051-65.737 4.577-120.054 31.451-161.443 79.9-67.474 79.077-97.137 212.312-83.596 375.146 0.562 6.969 6.157 12.729 13.464 11.752 90.954-5.349 190.62-58.736 260.138-139.33 63.284-73.317 94.352-159.157 87.607-241.834-0.588-7.020-6.489-12.112-13.796-11.752-7.026 0.591-12.263 6.84-11.701 13.861 6.183 75.682-22.738 154.837-81.424 222.881-61.93 71.825-148.924 120.557-229.837 129.455-10.194-148.047 18.14-272.719 78.46-343.438 36.739-43.049 85.154-66.965 143.814-70.976 7.026-0.514 12.34-6.635 11.88-13.707-0.358-6.789-5.978-12.009-12.672-12.009v0zM539.148 160.118c-5.851 0-11.114 4.063-12.442 10.055-30.812 138.070-177.973 317.594-240.363 378.232-5.084 4.886-5.238 13.012-0.358 18.156 4.905 5.092 13.030 5.22 18.063 0.36 64.128-62.413 215.479-247.389 247.543-391.090 1.558-6.969-2.785-13.758-9.657-15.43-0.92-0.206-1.865-0.283-2.785-0.283v0zM575.99 296.517c-5.927 0-11.216 4.166-12.493 10.235-1.456 6.943 2.989 13.758 9.887 15.224 192.434 40.529 193.737 304.504 187.12 403.922-111.137-12.138-227.027-97.875-279.325-208.197-3.040-6.429-10.705-9.103-17.041-6.069-6.362 3.060-9.070 10.724-6.030 17.127 58.021 122.434 189.828 216.581 313.407 223.858 6.796 0.669 12.928-4.835 13.464-11.752 20.541-246.514-56.616-412.512-206.383-444.091-0.894-0.154-1.737-0.257-2.606-0.257v0zM539.123 416.714c-2.197 0-4.42 0.54-6.438 1.749-6.081 3.626-8.125 11.444-4.548 17.641 58.762 100.936 139.778 195.622 179.915 234.711 5.11 4.86 13.183 4.809 18.063-0.36 4.88-5.040 4.778-13.269-0.307-18.181-39.115-38.034-118.163-130.483-175.648-229.259-2.402-3.986-6.668-6.3-11.037-6.3v0zM506.525-53.049c279.746 0 506.525 226.779 506.525 506.525s-226.779 506.525-506.525 506.525c-279.746 0-506.525-226.779-506.525-506.525s226.779-506.525 506.525-506.525v0zM506.525-19.475c-261.204 0-472.951 211.747-472.951 472.951s211.747 472.951 472.951 472.951c261.204 0 472.951-211.747 472.951-472.951s-211.747-472.951-472.951-472.951v0z" />
<glyph unicode="&#xe923;" glyph-name="amenities-shopping" d="M728.887 617.791h-100.055l8.393-8.393v61.335c0 48.783-28.646 93.77-83.82 96.203l-22.129 0.008c-2.283 0-4.52-0.46-6.588-1.342l3.293-7.721-0.976 8.337c-9.148-1.071-17.45-3.229-24.787-6.48l3.401-7.674 3.388 7.679c-9.591 4.231-20.27 6.674-32.048 7.2l-22.134 0.008c-2.283 0-4.52-0.46-6.588-1.342l3.293-7.721-0.975 8.337c-50.217-5.871-76.334-49.551-76.334-95.478v-61.335l8.393 8.393h-114.372l-42.443-452.938h568.096l-57.616 452.923h-7.393zM728.887 601.004l-8.326 7.334 55.48-436.136 8.326 9.453h-549.351l8.357-9.177 40.87 436.151-8.357-7.61h115.121v69.728c0 38.388 21.359 74.112 61.496 78.804l2.318 0.616c-0.007-0.003-0.009-0.003 0.003-0.003h21.759c9.353-0.426 17.988-2.401 25.647-5.78l3.396-1.498 3.393 1.504c5.726 2.538 12.399 4.272 19.937 5.154l2.317 0.616c-0.007-0.003-0.009-0.003 0.003-0.003h21.759c44.087-1.953 67.403-38.568 67.403-79.424v-69.728h108.449zM535.137 733.315l17.534 0.015c21.815-0.973 35.747-11.985 43.872-30.413 5.176-11.74 7.009-23.811 7.054-32.229v-61.29l8.393 8.393h-59.609l8.393-8.393v61.335c0 26.997-10.642 56.984-31.407 75.7l-5.62-6.235 1.772-8.204c3.4 0.734 6.642 1.177 9.991 1.33l-0.374-0.009zM534.748 750.093c-4.327-0.197-8.491-0.766-12.772-1.691l-16.027-3.461 12.179-10.978c16.828-15.168 25.859-40.615 25.859-63.231v-69.728h76.396v69.728c-0.056 10.561-2.208 24.729-8.481 38.957-10.542 23.911-29.803 39.135-58.869 40.419l-18.286-0.015zM501.219 725.8c18.863-12.023 25.801-35.567 25.934-55.117v-61.278l8.393 8.393h-59.624l8.393-8.393v61.32c0.065 19.309 7.057 43.052 25.925 55.075l-9.022 0.001zM510.242 739.956l-4.511 2.875-4.511-2.874c-14.726-9.384-24.122-24.124-29.361-41.916-3.161-10.736-4.307-20.609-4.33-27.288v-69.741h76.411v69.728c-0.046 6.855-1.179 16.582-4.34 27.307-5.242 17.789-14.636 32.526-29.358 41.909v0zM407.857 670.673c0.045 8.408 1.876 20.473 7.044 32.207 8.111 18.415 22.017 29.432 44.16 30.444l17.158 0.006c2.951-0.137 6.182-0.577 9.653-1.318l1.752 8.209-5.631 6.224c-20.686-18.715-31.313-48.737-31.313-75.712v-61.335l8.393 8.393h-59.609l8.393-8.393v61.275zM391.070 670.717v-69.713h76.396v69.728c0 22.605 9.024 48.096 25.789 63.264l12.167 11.008-16.047 3.424c-4.342 0.926-8.489 1.492-12.799 1.68l-17.906-0.007c-29.387-1.334-48.61-16.564-59.133-40.455-6.263-14.219-8.412-28.38-8.468-38.884v-0.045zM261.859 189.32l37.716 402.452-8.357-7.61h91.403l-8.393 8.393v-48.964c0-9.292 7.522-16.814 16.814-16.814s16.814 7.522 16.814 16.814v48.964l-8.393-8.393h136.075l-8.393 8.393v-48.964c0-9.292 7.522-16.814 16.814-16.814s16.814 7.522 16.814 16.814v48.964l-8.393-8.393h98.084l-8.357 9.177-37.716-402.452 8.357 7.61h-359.246l8.357-9.177zM245.146 190.886l-0.86-9.177h376.107l39.289 419.239h-115.694v-57.357c0-0.021-0.006-0.028-0.028-0.028s-0.028 0.006-0.028 0.028v57.357h-152.862v-57.357c0-0.021-0.006-0.028-0.028-0.028s-0.028 0.006-0.028 0.028v57.357h-107.441l-38.429-410.062zM656.872 390.546l18.858 201.226-8.357-7.61h46.68l-8.326 7.334 51.203-402.452 8.326 9.453h-135.599l8.357-9.177 18.858 201.226zM640.159 392.112l-19.718-210.403h154.345l-53.339 419.239h-61.717l-19.571-208.836zM506.525-53.049c279.746 0 506.525 226.779 506.525 506.525s-226.779 506.525-506.525 506.525c-279.746 0-506.525-226.779-506.525-506.525s226.779-506.525 506.525-506.525v0zM506.525-19.475c-261.204 0-472.951 211.747-472.951 472.951s211.747 472.951 472.951 472.951c261.204 0 472.951-211.747 472.951-472.951s-211.747-472.951-472.951-472.951v0z" />
<glyph unicode="&#xe924;" glyph-name="amenities-active-lifestyle" d="M506.525-53.049c279.746 0 506.525 226.779 506.525 506.525s-226.779 506.525-506.525 506.525c-279.746 0-506.525-226.779-506.525-506.525s226.779-506.525 506.525-506.525v0zM506.525-19.475c-261.204 0-472.951 211.747-472.951 472.951s211.747 472.951 472.951 472.951c261.204 0 472.951-211.747 472.951-472.951s-211.747-472.951-472.951-472.951v0zM818.858 195.603h-245.454c-3.574 0-7.011 1.446-9.602 3.955l-347.803 341.529c-2.591 2.564-4.065 6.165-4.037 9.848s1.609 7.229 4.255 9.711c1.009 0.982 103.741 98.285 120.708 115.252 21.987 21.987 41.627 26.597 54.312 26.597 14.649 0 28.397-6.138 38.681-17.213 13.012-14.021 19.504-34.48 17.868-56.194-1.282-16.64 5.756-33.471 20.95-49.784 31.18-33.526 86.092-54.312 119.235-54.312l3.192 0.082c5.592-0.327 10.748-2.892 13.039-8.047 11.375-25.26 45.174-100.249 74.034-184.977h69.697c46.674 0 84.673-37.945 84.673-84.618v-38.136c-0.109-7.556-6.247-13.694-13.748-13.694v0zM578.969 222.882h226.249v24.496c0 31.589-25.669 57.34-57.34 57.34h-79.49c-5.865 0-11.075 3.792-13.012 9.329-26.488 79.49-58.349 151.997-72.507 183.749-39.8 1.828-99.131 25.096-134.211 62.959-20.186 21.905-30.007 46.183-28.124 70.434 1.064 13.939-2.892 27.17-10.693 35.544-3.546 3.874-9.657 8.484-18.659 8.484-10.775 0-22.914-6.41-35.026-18.604-14.185-14.212-84.209-80.636-110.888-106.005l333.7-327.726zM817.358 247.814l-237.461 0.055-324.807 326.008 19.341 19.231 316.815-317.96 226.113-0.055zM447.813 385.654c-5.538 0-10.802 3.41-12.794 8.893-2.673 7.092 0.927 14.921 8.047 17.54l166.536 61.65c7.12 2.673 14.921-1.009 17.595-8.047 2.619-7.147-1.009-14.976-8.047-17.595l-166.591-61.595c-1.528-0.573-3.164-0.846-4.746-0.846v0zM486.413 347.081c-5.592 0-10.802 3.464-12.848 9.002-2.564 7.092 1.146 14.921 8.265 17.54l146.514 52.757c7.038 2.455 14.867-1.118 17.431-8.265 2.619-7.092-1.118-14.867-8.211-17.431l-146.514-52.812c-1.555-0.546-3.11-0.791-4.637-0.791v0zM524.985 308.455c-5.483 0-10.693 3.355-12.766 8.838-2.673 7.038 0.873 14.921 7.938 17.595l105.323 39.909c7.011 2.673 14.894-0.846 17.622-7.938 2.673-7.038-0.9-14.921-7.938-17.595l-105.323-39.909c-1.609-0.655-3.273-0.9-4.856-0.9v0zM259.645 386.554h-54.557c-7.502 0-13.639 6.138-13.639 13.639s6.138 13.639 13.639 13.639h54.557c7.502 0 13.639-6.138 13.639-13.639s-6.138-13.639-13.639-13.639v0zM314.202 331.996h-109.115c-7.502 0-13.639 6.138-13.639 13.639s6.138 13.639 13.639 13.639h109.115c7.502 0 13.639-6.138 13.639-13.639s-6.138-13.639-13.639-13.639v0zM368.76 277.439h-163.672c-7.502 0-13.639 6.138-13.639 13.639s6.138 13.639 13.639 13.639h163.672c7.502 0 13.639-6.138 13.639-13.639s-6.138-13.639-13.639-13.639v0z" />
<glyph unicode="&#xe925;" glyph-name="directions" d="M1005.427 492.892l-448.599 448.503c-24.775 24.807-64.913 24.807-89.688 0l-448.631-448.503c-24.679-24.839-24.679-64.977 0-89.784l448.631-448.503c24.775-24.839 64.913-24.839 89.688 0l448.631 448.503c24.743 24.807 24.743 64.945-0.032 89.784v0zM576.161 319.374v128.738h-128.034v-128.738c0-35.369-28.648-64.049-64.017-64.049-35.401 0-64.017 28.68-64.017 64.049v192.083c0 35.401 28.968 64.689 64.369 64.689h191.699v127.394l192.115-192.083-192.115-192.083z" />
<glyph unicode="&#xe926;" glyph-name="contact-office" horiz-adv-x="1226" d="M1045.264 733.703h-175.818v72.623c0 13.367-10.82 24.209-24.158 24.209h-467.059c-13.339 0-24.158-10.842-24.158-24.209v-72.623h-175.817c-13.339 0-24.158-10.842-24.158-24.209v-617.13c0-13.367 10.82-24.209 24.158-24.209h867.006c13.339 0 24.158 10.842 24.158 24.209v617.13c0.005 13.367-10.814 24.209-24.153 24.209v0zM499.223 252.855h225.065v-136.282h-225.065v136.282zM1021.106 116.573h-248.494v160.49c0 13.367-10.82 24.209-24.158 24.209h-273.387c-13.339 0-24.158-10.842-24.158-24.209v-160.49h-248.494v568.716h818.695v-568.716zM821.133 782.119v-48.417h-418.743v48.417h418.743zM390.4 464.421h-34.682c-13.339 0-24.158-10.842-24.158-24.209s10.82-24.209 24.158-24.209h34.682c13.339 0 24.158 10.842 24.158 24.209s-10.82 24.209-24.158 24.209v0zM390.4 560.56h-34.682c-13.339 0-24.158-10.842-24.158-24.209s10.82-24.209 24.158-24.209h34.682c13.339 0 24.158 10.842 24.158 24.209s-10.82 24.209-24.158 24.209v0zM509.75 464.421h-34.682c-13.339 0-24.158-10.842-24.158-24.209s10.82-24.209 24.158-24.209h34.682c13.339 0 24.158 10.842 24.158 24.209s-10.814 24.209-24.158 24.209v0zM509.75 560.56h-34.682c-13.339 0-24.158-10.842-24.158-24.209s10.82-24.209 24.158-24.209h34.682c13.339 0 24.158 10.842 24.158 24.209s-10.814 24.209-24.158 24.209v0zM629.102 464.421h-34.682c-13.339 0-24.158-10.842-24.158-24.209s10.82-24.209 24.158-24.209h34.682c13.339 0 24.158 10.842 24.158 24.209s-10.82 24.209-24.158 24.209v0zM629.102 560.56h-34.682c-13.339 0-24.158-10.842-24.158-24.209s10.82-24.209 24.158-24.209h34.682c13.339 0 24.158 10.842 24.158 24.209s-10.82 24.209-24.158 24.209v0zM748.452 464.421h-34.682c-13.339 0-24.158-10.842-24.158-24.209s10.82-24.209 24.158-24.209h34.682c13.339 0 24.158 10.842 24.158 24.209s-10.82 24.209-24.158 24.209v0zM748.452 560.56h-34.682c-13.339 0-24.158-10.842-24.158-24.209s10.82-24.209 24.158-24.209h34.682c13.339 0 24.158 10.842 24.158 24.209s-10.82 24.209-24.158 24.209v0zM867.802 464.421h-34.682c-13.339 0-24.158-10.842-24.158-24.209s10.82-24.209 24.158-24.209h34.682c13.339 0 24.158 10.842 24.158 24.209s-10.82 24.209-24.158 24.209v0zM808.961 536.351c0-13.367 10.82-24.209 24.158-24.209h34.682c13.339 0 24.158 10.842 24.158 24.209s-10.82 24.209-24.158 24.209h-34.682c-13.339 0-24.158-10.842-24.158-24.209v0z" />
<glyph unicode="&#xe927;" glyph-name="contact-mobile-phone" horiz-adv-x="676" d="M9.267 778.41v-659.068c0-100.138 81.286-181.59 181.263-181.59h296.319c99.977 0 181.263 81.452 181.263 181.59v659.068c0 100.138-81.286 181.59-181.263 181.59h-296.319c-99.977 0-181.263-81.452-181.263-181.59zM486.849 917.773c76.636 0 139.036-62.527 139.036-139.363v-659.068c0-76.836-62.4-139.363-139.036-139.363h-296.319c-76.636 0-139.036 62.527-139.036 139.363v659.068c0 76.836 62.4 139.363 139.036 139.363h296.319zM84.277 789.893v-592.541c0-25.207 20.41-45.66 45.61-45.66h417.601c25.199 0 45.61 20.452 45.61 45.66v592.541c0.007 25.204-20.405 45.66-45.606 45.66h-417.604c-25.199 0-45.61-20.452-45.61-45.66zM547.492 793.326c1.858 0 3.38-1.525 3.379-3.427v-592.546c0-1.906-1.524-3.433-3.383-3.433h-417.601c-1.859 0-3.383 1.527-3.383 3.433v592.541c0 1.906 1.524 3.433 3.383 3.433h417.604zM391.181 74.547c0-29.050-23.501-52.599-52.492-52.599s-52.492 23.549-52.492 52.599c0 29.050 23.501 52.599 52.492 52.599s52.492-23.549 52.492-52.599zM237.205 355.622h202.969c13.529 0 24.496 10.99 24.496 24.546v129.109c0 7.704-3.608 14.959-9.746 19.598l-101.484 76.686c-8.731 6.599-20.769 6.599-29.5 0l-101.484-76.686c-6.138-4.639-9.746-11.894-9.746-19.598v-129.109c0-13.557 10.967-24.546 24.496-24.546v0zM261.701 497.043l76.988 58.174 76.988-58.174v-92.329h-53.783v42.942c0 4.401-3.562 7.97-7.954 7.97h-30.501c-4.392 0-7.954-3.57-7.954-7.97v-42.942h-53.783v92.329z" />
<glyph unicode="&#xe929;" glyph-name="careers" d="M570.276 826.69l57.658-57.658c66.307-7.826 144.145 30.476 189.859-15.239s7.413-123.552 15.239-189.859l57.658-57.658c16.062-16.062 16.062-42.009 0-58.071l-378.485-378.895c-16.475-16.062-42.419-16.062-58.481 0l-320.414 320.414c-16.062 16.062-16.062 42.009 0 58.481l378.895 378.485c16.062 16.062 42.009 16.062 58.071 0zM594.161 734.024l-23.888-23.888 203.862-203.862 23.888 23.888c-7.826 24.711-8.236 50.245-6.177 74.956 0.823 12.767 2.059 25.534 3.707 37.89 4.941 41.184 7.413 67.13-7.001 81.546s-40.36 11.944-81.546 7.001c-12.355-1.647-25.122-2.882-37.89-3.707-24.711-2.059-50.245-1.647-74.956 6.177zM759.722 695.723c16.062-16.062 16.062-42.419 0-58.481s-42.419-16.062-58.481 0-16.062 42.419 0 58.481 42.419 16.062 58.481 0zM482.964 680.897l-29.242-28.829 262.344-262.344 28.829 29.242zM424.482 622.826l-28.829-29.242 261.933-261.933 29.242 28.829zM366.414 564.345l-29.242-28.829 262.344-262.344 28.829 29.242zM308.343 506.275l-29.242-29.242 261.933-261.933 29.242 29.242zM249.862 448.206l-29.242-29.242 262.344-262.344 29.242 29.242z" />
<glyph unicode="&#xe92a;" glyph-name="testimonials" d="M636.388 799.574c7.041 0.939 12.204-0.939 19.245-3.286 26.286-8.918 38.959-37.082 30.98-63.368-7.98-25.816-46.939-142.695-46.939-168.042 0-24.878 35.204-46.939 63.368-46.939h140.817c28.163 0 46.939-18.776 46.939-46.939s-93.878-328.573-93.878-328.573c-7.98-18.306-25.816-46.939-46.939-46.939h-429.023v422.451h100.449c19.245 19.245 154.899 221.083 168.042 247.369 9.857 19.245 28.163 31.919 46.939 34.265zM133.202 517.94h93.878v-422.451h-93.878v422.451z" />
<glyph unicode="&#xe92b;" glyph-name="events" d="M731.428 722.286h131.658v-658.286h-702.172v658.286h131.658v43.886c0 17.994 6.582 33.354 19.31 46.518 12.726 12.726 28.526 19.31 46.518 19.31s33.792-6.582 46.518-19.31c12.726-13.166 19.31-28.526 19.31-46.518v-43.886h175.542v43.886c0 17.994 6.582 33.354 19.31 46.518 12.726 12.726 28.526 19.31 46.518 19.31s33.792-6.582 46.518-19.31c12.726-13.166 19.31-28.526 19.31-46.518v-43.886zM336.458 766.172v-109.714c0-6.144 2.194-11.41 6.582-15.798 3.95-3.95 9.216-6.144 15.36-6.144s11.41 2.194 15.36 6.144c4.388 4.388 6.582 9.654 6.582 15.798v109.714c0 6.144-2.194 11.41-6.582 15.36-3.95 4.388-9.216 6.582-15.36 6.582s-11.41-2.194-15.36-6.582c-4.388-3.95-6.582-9.216-6.582-15.36zM643.658 766.172v-109.714c0-6.144 2.194-11.41 6.144-15.798 4.388-3.95 9.654-6.144 15.798-6.144s11.41 2.194 15.798 6.144c3.95 4.388 6.144 9.654 6.144 15.798v109.714c0 6.144-2.194 11.41-6.144 15.36-4.388 4.388-9.654 6.582-15.798 6.582s-11.41-2.194-15.798-6.582c-3.95-3.95-6.144-9.216-6.144-15.36zM819.2 107.886v438.858h-614.4v-438.858h614.4zM380.342 502.858v-87.772h-87.772v87.772h87.772zM468.114 502.858h87.772v-87.772h-87.772v87.772zM643.658 415.086v87.772h87.772v-87.772h-87.772zM380.342 371.2v-87.772h-87.772v87.772h87.772zM468.114 371.2h87.772v-87.772h-87.772v87.772zM643.658 283.43v87.772h87.772v-87.772h-87.772zM380.342 239.544v-87.772h-87.772v87.772h87.772zM555.886 151.772h-87.772v87.772h87.772v-87.772zM731.428 151.772h-87.772v87.772h87.772v-87.772z" />
<glyph unicode="&#xe991;" glyph-name="wrench" d="M1002.934 142.124l-460.552 394.76c21.448 40.298 33.618 86.282 33.618 135.116 0 159.058-128.942 288-288 288-29.094 0-57.172-4.332-83.646-12.354l166.39-166.39c24.89-24.89 24.89-65.62 0-90.51l-101.49-101.49c-24.89-24.89-65.62-24.89-90.51 0l-166.39 166.39c-8.022-26.474-12.354-54.552-12.354-83.646 0-159.058 128.942-288 288-288 48.834 0 94.818 12.17 135.116 33.62l394.76-460.552c22.908-26.724 62.016-28.226 86.904-3.338l101.492 101.492c24.888 24.888 23.386 63.994-3.338 86.902z" />
<glyph unicode="&#xf095;" glyph-name="phone" horiz-adv-x="805" d="M804.571 242.286c0-20.571-9.143-60.571-17.714-79.429-12-28-44-46.286-69.714-60.571-33.714-18.286-68-29.143-106.286-29.143-53.143 0-101.143 21.714-149.714 39.429-34.857 12.571-68.571 28-100 47.429-97.143 60-214.286 177.143-274.286 274.286-19.429 31.429-34.857 65.143-47.429 100-17.714 48.571-39.429 96.571-39.429 149.714 0 38.286 10.857 72.571 29.143 106.286 14.286 25.714 32.571 57.714 60.571 69.714 18.857 8.571 58.857 17.714 79.429 17.714 4 0 8 0 12-1.714 12-4 24.571-32 30.286-43.429 18.286-32.571 36-65.714 54.857-97.714 9.143-14.857 26.286-33.143 26.286-50.857 0-34.857-103.429-85.714-103.429-116.571 0-15.429 14.286-35.429 22.286-49.143 57.714-104 129.714-176 233.714-233.714 13.714-8 33.714-22.286 49.143-22.286 30.857 0 81.714 103.429 116.571 103.429 17.714 0 36-17.143 50.857-26.286 32-18.857 65.143-36.571 97.714-54.857 11.429-5.714 39.429-18.286 43.429-30.286 1.714-4 1.714-8 1.714-12z" />
<glyph unicode="&#xf277;" glyph-name="map-signs" d="M997.143 781.143c7.429-7.429 7.429-18.857 0-26.286l-80.571-80.571c-10.286-10.286-24.571-16-38.857-16h-768c-20 0-36.571 16.571-36.571 36.571v146.286c0 20 16.571 36.571 36.571 36.571h329.143v36.571c0 20 16.571 36.571 36.571 36.571h73.143c20 0 36.571-16.571 36.571-36.571v-36.571h292.571c14.286 0 28.571-5.714 38.857-16zM438.857 256h146.286v-292.571c0-20-16.571-36.571-36.571-36.571h-73.143c-20 0-36.571 16.571-36.571 36.571v292.571zM914.286 512c20 0 36.571-16.571 36.571-36.571v-146.286c0-20-16.571-36.571-36.571-36.571h-768c-14.286 0-28.571 5.714-38.857 16l-80.571 80.571c-7.429 7.429-7.429 18.857 0 26.286l80.571 80.571c10.286 10.286 24.571 16 38.857 16h292.571v109.714h146.286v-109.714h329.143z" />
</font>
</defs>
</svg>
